logo

Most popular

Homme mature cherche homme mûr au panama Incontri catane donne

Qui repose sur des infos réelles : il a balancé les noms des concurrents qui gênent son allié Escobar. Mais la situation devient intenable. Laffaire Iran-Contras, qui a mis au jour des ventes darmes illégales à lIran pour financer la guérilla anticommuniste au Nicaragua, a.Il.


Read more

La recherche d'une femme seule de mantoue à avoir des relations sexuelles entrez le néo site Emploi hotel toscane

Poster: kejacksbs 12:15 966 3,430 Маркетинг, реклама и торговля (просматривают: 1) Торгово-развлекательные центры Poster: Tubsnunty 22:59 1,367 6,233 Математика К решению теоремы Ферма Poster: xoxlitos 14: Медицина (просматривают: 4) Оптимізація комплексного лікування хворих на псоріаз з.Poster: вова 11: Курсы, MBA, тренинги, повышение квалификации МБА, курсы.


Read more

Annonces pour les femmes, les adolescents Magasins chinois en ligne

Ce diplôme récent succède notamment au BEES 1er degré de la même spécialité. Il peut se préparer par la voie scolaire, par apprentissage ou en formation continue. Le DEFA (niveau bac 2) donne accès aux fonctions de responsable d un projet d animation, d un.


Read more

Top news

Je suis homme cherche femme Site de " width="85" alt="Je suis homme cherche femme Site de rencontre pour infidele" />
Vous savez où trouver! Publier une annonce» Aide A la Une 2 Relation sérieuse 34 ans Paris 1 une relation sérieuse 63 ans Essonne 2 relation serieuse prete a. 32 ans Loire-Atlantique Relation sérieuse 45 ans Loiret 4.Vivastreet reste néanmoins gratuit pour les particuliers.37 ans...
Read more
Homme 60 ans cherche femme Mature baise " width="85" alt="Homme 60 ans cherche femme Mature baise avec jeunot" />
De nombreuses jeunes femmes assument leurs préférences et recherchent des hommes de plus de 35 ou 40 ans pour leur expérience, maturité, leur vécu et leur présence sécurisante. Que vous appréciez la compagnie des hommes plus mûrs ou bien que vous souhaitiez tenter pour la.131...
Read more

Femmes matures à la recherche de l'homme


Femmes matures à la recherche de l'homme

Туалетная вода L'HOMME LIBRE Туалетная вода LA NUIT DE L'HOMME. Парфюмерная вода CINEMA Парфюмерная вода LA NUIT DE L'HOMME. Парфюмерная вода PARISIENNE Парфюмерная вода MANIFESTO Парфюмерная вода OPIUM. Парфюмерная вода Parisienne LEssentiel ТУШФФЕКТОМ НАКЛАДНЫХ РЕСНИЦ MASCARA VOLUME EFFET FAUX CILS.
YSL Тушь с эффектом накладных ресниц Mascara Volume Effet Faux Cils THE SHOCK. Все les femmes pour faire l'amour à huelva Ensemble lingerie ouvert товары.
Он украшает и подчеркивает силу личности: раскрывает стиль каждой, отражает отношение к жизни, манере и игру красоты в стиле Yves Saint Laurent. Классицизм в сочетании с экстравагантностью, освещенные огнями Парижа. Уникальный манифест. Мечта остается мечтой и сегодня.
Яркий логотип марки олицетворяет собой во всем мире дух Парижа, свободы и любви. «Лучший макияж для женщины это страсть» Ив Сен Лоран. Туалетная вода L'homme Парфюмерная вода MANIFESTO L'ELIXIR Парфюмерная вода Black Opium. Туалетная вода L'Homme Sport Парфюмерная вода L'HOMME PARFUM INTENSE Туалетная вода L'HOMME.
Frida (3:44) 09. Karmique Afrique (3:48) 10. Daydream (3:25) 11. Je recommencerai (3:34) 12. L'exode (3:56) Контейнер: FLAC (.flac) Тип рипа: tracks. Разрядность: 24/44,1 Количество каналов: 2.0 Лог проверки качества foobar2000 / Dynamic Range Meter log date: Analyzed: Bessa / De l'Homme à l'Animal.
Juicy Couture Juliette Has a Gun Kenneth Cole Kenzo Kilian Kinski Krizia La Perla La Prairie Lacoste Lady Gaga Lalique Lancome Lanvin Laura Biagiotti Loewe Lolita Lempicka Mancera Mandarina Duck Marc Jacobs Marina de Bourbon Masaki Matsushima Max Mara Mercedes-Benz Mexx Missoni Miu Miu Mont.
DR5 0.00 dB -6.31 dB 3:48 09-Karmique Afrique. DR5 0.00 dB -5.48 dB 3:25 10-Daydream. DR5 -0.05 dB -6.95 dB 3:34 11-Je recommencerai. DR5 -0.10 dB -8.75 dB 3:56 12-L'exode Number of tracks: 12 Official DR value: DR5 Samplerate: 44100 Hz.
La Nuit de LHomme от Yves Saint Laurent открывается нотами кардамона и бергамота, продолжается ароматами кедра и лаванды, а закрывают композицию аккорды ветивера и кумарина. Начало La Nuit de L'Homme достаточно традиционно: древесный аккорд с легким фруктовым оттенком и нотами специй, который можно обнаружить в.
DR Peak RMS Duration Track. DR6 -0.10 dB -8.72 dB 4:32 01-De l'Homme à l'Animal. DR5 0.00 dB -7.01 dB 3:19 02-Par hasard. DR6 -1.09 dB -9.32 dB 3:47 03-Héloïse. DR6 0.00 dB -7.81 dB 3:06 04-Daddy.
Выберите бренд Acqua di Parma Agent Provocateur Ajmal Alessandro DellAcqua Alfred Sung Amouage Angel Schlesser Annayake Antonio Banderas Aramis Armand Basi Azzaro Badgley Mischka Baldessarini Baldinini Balenciaga Beyonce Bill Blass Blumarine Bottega Veneta Boucheron Britney Spears Bruno Banani Burberry Bvlgari Byblos Byredo Cacharel Calvin Klein.


176
Sitemap